&title=[宴] GEMINI -M-
&artist=Tatsh
&wholebpm=180
&demo_seek=49.1
&demo_len=12.1
&lv_7=宴
&inote_7=(180.0){1},
{2}1h[4:7],2h[4:5],
{2}3h[4:3],4h[4:1],
{2}8h[4:7],7h[4:5],
{2}6h[4:3],5h[4:1],
{4}3/4,3/4,2/3/4/5,2/3/4/5,
{4}5/6,5/6,4/5/6/7,4/5/6/7,
{4}1/2,1/2,1/2/3/8,1/2/3/8,
{4}7/8,7/8,1/6/7/8,1/6/7/8,
{4}4,3/4,2/3/4,1/2/3/4,
{4}5,5/6,5/6/7,5/6/7/8,
{4}4,3/4,2/3/4,1/2/3/4,
{4}5,5/6,5/6/7,5/6/7/8,
{8}3,3,3h[2:3],,4,4,4h[1:1],,
{8}5,5,5h[2:1],,6,6,6,,
{8}6,6,6h[2:3],,5,5,5h[1:1],,
{8}4,4,4h[2:1],,3,3,3,,
{8}2,2,2h[2:3],,1,1,1h[1:1],,
{8}8,8,8h[2:1],,7,7,7,,
{8}7,7,7h[2:3],,8,8,8h[1:1],,
{8}1,1,1h[2:1],,2,2,2,,
{1}2h[2:1]/8h[2:1]/4h[2:3]/6h[2:3],
{4}2/8,2/8,2/8,,
{1}1h[2:1]/7h[2:1]/3h[2:3]/5h[2:3],
{4}1/7,1/7,1/7,,
{1}2h[2:1]/6h[2:1]/4h[2:3]/8h[2:3],
{4}2/6,2/6,2/6,,
{1}1h[2:1]/5h[2:1]/3h[2:3]/7h[2:3],
{4}1/5,1/5,1/5,,
{4}1h[4:1]/2h[4:1]/7h[2:3]/8h[2:3],,3/4,3/4,
{4}1/2,1/2,1/2,,
{4}7h[4:1]/8h[4:1]/1h[2:3]/2h[2:3],,5/6,5/6,
{4}7/8,7/8,7/8,,
{4}1h[4:1]/2h[4:1]/7h[2:3]/8h[2:3],,1/2,3/4,
{4}5/6,3/4,1/2,,
{4}7h[4:1]/8h[4:1]/1h[2:3]/2h[2:3],,5/6,3/4,
{4}5/6,7/8,5/6,,
{8}1/2/7/8,,1/2/7/8,,3/4/5/6,3/4/5/6,3/4/5/6,,
{4}1/2/3/4/5/6/7/8,1/2/3/4/5/6/7/8,1b/2b/3b/4b/5b/6b/7b/8b,,
{8}1/2/7/8,,1/2/7/8,,3/4/5/6,3/4/5/6,3/4/5/6,,
{4}1/2/3/4/5/6/7/8,1/2/3/4/5/6/7/8,1/2/3/4/5/6/7/8,1/2/3/4/5/6/7/8,
{8}1/2/5/6,,1/2/5/6,,3/4/7/8,3/4/7/8,3/4/7/8,,
{4}1/2/3/4/5/6/7/8,1/2/3/4/5/6/7/8,1b/2b/3b/4b/5b/6b/7b/8b,,
{8}3/4/7/8,,3/4/7/8,,1/2/5/6,1/2/5/6,1/2/5/6,,
{4}1/2/3/4/5/6/7/8,1/2/3/4/5/6/7/8,1/2/3/4/5/6/7/8,1/2/3/4/5/6/7/8,
{4}1h[1:1],2h[1:1],3h[1:1],4h[1:1],
{1}5h[4:3],
{4}8h[1:1],7h[1:1],6h[1:1],5h[1:1],
{1}4h[4:3],
{4}2h[1:1],3h[1:1],4h[1:1],5h[1:1],
{1}6h[4:3],
{4}7h[1:1],6h[1:1],5h[1:1],4h[1:1],
{1}3h[4:3],
{2}1h[2:7],2h[1:3],
{2}3h[2:5],8h[1:2],
{2}7h[2:3],6h[1:1],
{2}5h[2:1],4,
{1}1-3[4:5]*-4[4:5]*-5[4:5]*-6[4:5]*-7[4:5]/8-2[4:5]*-3[4:5]*-4[4:5]*-5[4:5]*-6[4:5],,
{1}4-1[4:5]*-2[4:5]*-6[4:5]*-7[4:5]*-8[4:5]/5-1[4:5]*-2[4:5]*-3[4:5]*-7[4:5]*-8[4:5],,
{1}4p1[4:5]*p2[4:5]*p3[4:5]*q6[4:5]*q7[4:5]/5p2[4:5]*p3[4:5]*q6[4:5]*q7[4:5]*q8[4:5],,
{1}1q2[4:5]*q3[4:5]*q4[4:5]*p6[4:5]*p7[4:5]/8q2[4:5]*q3[4:5]*p5[4:5]*p6[4:5]*p7[4:5],,
{8}7/8/1h[4:7]/2h[4:7],,7/8,,5/6,5/6,5/6,,
{8}3/4,,3/4,,7/8,7/8,7/8,,
{8}1/2/7h[4:7]/8h[4:7],,1/2,,3/4,3/4,3/4,,
{8}5/6,,5/6,,1/2,1/2,1/2,,
{8}7/8/1h[4:7]/2h[4:7]/3h[4:7],,5/6,,4/5,4/5,4/5,,
{8}6/7,,6/7,,7/8,7/8,7/8,,
{8}1/2/6h[4:7]/7h[4:7]/8h[4:7],,3/4,,4/5,4/5,4/5,,
{8}2/3,,2/3,,1/2,1/2,1/2,,
{8}7/8/1h[4:7]/2h[4:7],7/8,7/8,,5/6,5/6,5/6,,
{8}3/4,3/4,3/4,,7/8,7/8,7/8,,
{8}1/2/7h[4:7]/8h[4:7],1/2,1/2,,3/4,3/4,3/4,,
{8}5/6,5/6,5/6,,1/2,1/2,1/2,,
{8}7/8/1h[4:7]/2h[4:7]/3h[4:7],7/8,7/8,,5/6,5/6,5/6,,
{8}4/5,4/5,4/5,,6/7/8,6/7/8,6/7/8,,
{8}1/2/6h[4:7]/7h[4:7]/8h[4:7],1/2,1/2,,3/4,3/4,3/4,,
{8}4/5,4/5,4/5,,1/2/3,1/2/3,1/2/3,,
{4}1/2/3/4/5,1/2/3/4/5,1/2/3/4/5,1/2/3/4/5,
{1}1-7[4:1]/2-7[4:1]/3-7[4:1]*-7[4:1]/4-7[4:1]/5-7[4:1],
{4}4/5/6/7/8,4/5/6/7/8,4/5/6/7/8,4/5/6/7/8,
{1}4-2[4:1]/5-2[4:1]/6-2[4:1]*-2[4:1]/7-2[4:1]/8-2[4:1],
{4}1/2/3/4/7/8,1/2/3/4/7/8,1/2/3/4/7/8,1/2/3/4/7/8,
{1}1-5[4:1]/2-6[4:1]/3-6[4:1]/4-6[4:1]/7-5[4:1]/8-5[4:1],
{4}1/2/5/6/7/8,1/2/5/6/7/8,1/2/5/6/7/8,1/2/5/6/7/8,
{1}1-4[4:1]/2-4[4:1]/5-3[4:1]/6-3[4:1]/7-3[4:1]/8-4[4:1],
{8}5/6/7/8,5/6/7/8,5/6/7/8,,3/4/5/6,3/4/5/6,3/4/5/6,,
{8}1/2/3/4,1/2/3/4,1/2/3/4,,1/2/7/8,1/2/7/8,1/2/7/8,,
{8}5/6/7/8,5/6/7/8,5/6/7/8,,1/2/7/8,1/2/7/8,1/2/7/8,,
{8}1/2/3/4,1/2/3/4,1/2/3/4,,3/4/5/6,3/4/5/6,3/4/5/6,,
{2}1h[2:3]/8h[2:3],2h[1:1]/7h[1:1],
{2}3h[2:1]/6h[2:1],4/5,
{4}1/2/3/4/5/6/7/8,1/2/3/4/5/6/7/8,1b/2b/3b/4b/5b/6b/7b/8b,,
{4}1$/2$/3$/4$/5$/6$/7$/8$,1$/2$/3$/4$/5$/6$/7$/8$,1b$/2b$/3b$/4b$/5b$/6b$/7b$/8b$,,
{4}1/2/3/4/5/6/7/8,1/2/3/4/5/6/7/8,1b/2b/3b/4b/5b/6b/7b/8b,,
{4}1$/2$/3$/4$/5$/6$/7$/8$,1$/2$/3$/4$/5$/6$/7$/8$,1b$/2b$/3b$/4b$/5b$/6b$/7b$/8b$,,
{1}2b/4b/6b/8b/1b$/3b$/5b$/7b$,
E
